#TITLE:Rip=Release;
#SUBTITLE:;
#ARTIST:Megurine Luka;
#TITLETRANSLIT:;
#SUBTITLETRANSLIT:;
#ARTISTTRANSLIT:;
#CREDIT:;
#BANNER:Megurine Luka - Rip-Release-banner.jpg;
#BACKGROUND:Megurine Luka - Rip-Release-bg.jpg;
#LYRICSPATH:Megurine Luka - Rip=Release.lrc;
#CDTITLE:CDTitle.png;
#MUSIC:Megurine Luka - Rip=Release.ogg;
#OFFSET:0.520;
#SAMPLESTART:85.000;
#SAMPLELENGTH:12.000;
#SELECTABLE:YES;
#BPMS:0.000=115.000;
#STOPS:;
#BGCHANGES:;
// cache tags:
#FIRSTBEAT:5.000;
#LASTBEAT:222.000;
#SONGFILENAME:songs/Vocaloid Party/Megurine Luka - Rip=Release/Megurine Luka - Rip=Release.sm;
#HASMUSIC:1;
#HASBANNER:1;
#MUSICLENGTH:115.920;
// end cache tags

//---------------dance-single - ----------------
#NOTES:
     dance-single:
     :
     Challenge:
     9:
     0.626,0.670,0.380,0.198,0.647,441.000,44.000,23.000,46.000,6.000:

0000
0000
0000
0000
,
0000
0000
0000
0000
1001
0000
1000
0010
0100
0010
0000
0000
1000
0010
0100
0010
,
0000
0000
1000
0000
1010
0000
0010
0100
0001
0100
0000
0000
0010
0100
0001
0100
,
0000
0000
0010
0000
0110
0000
0001
0100
0010
1000
0000
0000
0001
0100
0010
1000
,
0000
0000
0010
0000
1010
0000
1000
0001
1000
0001
0000
0000
1000
0001
1000
0001
,
0000
0100
2020
0002
3030
0000
1100
0000
,
0003
1100
2002
0010
0000
0000
0010
0000
,
3003
1000
0220
0002
0330
0000
1010
0000
,
0003
0000
0000
01M1
0000
0000
0120
0000
0000
0000
0000
0000
0030
0000
0000
1M10
0000
0000
0210
0000
0000
0301
1000
0001
,
1000
0000
0000
0000
0010
0000
0100
0000
0100
0010
0000
0000
1000
0000
1000
0001
,
0000
0001
1000
0000
0000
0000
0001
0000
0001
0100
0000
0000
0100
0000
0010
1000
,
0000
1000
0010
0000
0000
0000
0100
0000
0100
0010
0000
0000
0010
0000
1000
0100
,
0000
0100
1000
0000
0000
0000
1000
0000
1000
0001
0000
0000
0001
0100
0010
0100
,
0010
0000
1000
0000
0000
0000
0002
0000
0000
0013
0000
0000
1200
0000
0000
00M1
,
0300
0000
1100
0000
0000
0000
1000
0010
1000
0010
0100
0010
0200
0000
0000
0310
,
1000
0100
0020
0000
0031
0000
2000
0000
0000
3010
0000
0000
0102
0000
0000
0M10
,
0003
0000
0101
0000
0001
0000
2000
0000
0000
3010
0000
0000
1000
0100
1000
0100
,
0010
0000
0001
0100
0010
0100
0001
1000
,
0100
0000
0000
0000
0010
0000
0001
0010
0001
0000
0000
0000
0010
0000
0000
0000
0001
0000
0000
0000
0100
0000
0000
0000
0010
0000
0000
0000
1000
0000
0000
0000
,
0100
0000
0000
0000
1000
0000
0010
1000
0010
0000
0000
0000
1000
0000
0000
0000
0100
0000
0000
0000
1000
0000
0000
0000
0010
0000
0000
0000
0100
0000
0000
0000
,
0010
0000
0100
0000
0001
0000
0000
0100
0000
0000
0001
0000
1M01
0000
0000
10M1
,
0000
1M01
1000
0010
0100
0001
0100
0010
,
1000
0000
0000
0000
0010
0000
0100
0010
0100
0000
0000
0000
0000
0000
0010
0000
0000
0000
0000
0000
1000
0000
0000
0000
0000
0000
0000
0000
0010
0000
0000
0000
,
0000
0000
1000
0000
0001
0000
0100
0010
0000
0000
1000
0000
0000
0010
0000
0000
,
0100
0000
0001
0000
0010
0000
0000
0001
0000
0000
0100
0000
M101
0000
0000
01M1
,
0000
0000
M101
0000
0010
0000
1000
0000
0001
0000
0100
0001
0000
0100
0001
0000
,
0100
0000
0000
0000
0010
0000
1000
0001
1000
0000
0000
0000
0001
0000
0000
0000
0100
0000
0000
0000
0010
0000
0000
0000
1000
0000
0000
0000
0010
0000
0000
0000
,
0100
0000
0000
0000
0001
0000
0100
0001
0100
0000
0000
0000
0010
0000
0000
0000
1000
0000
0000
0000
0100
0000
1000
0000
0000
0000
0100
0000
1000
0000
0000
0000
,
0010
0000
0100
0000
0010
0000
0000
1000
0000
0000
0001
0000
M110
0000
0000
011M
,
0000
0000
M110
0000
1000
0000
0010
0000
0100
0000
0001
0100
0001
0100
0001
0000
,
1000
0000
0000
0000
0010
0000
1000
0001
1000
0000
0000
0000
0000
0000
0010
0000
0000
0000
0000
0000
0100
0000
0000
0000
0000
0000
0000
0000
0001
0000
0000
0000
,
0000
0000
1000
0000
0100
0000
1000
0000
0001
0000
0100
0010
0100
0010
0100
0000
,
0010
1000
0100
0000
1000
0000
0001
0100
,
0001
0010
0001
0010
0001
0000
0010
0000
0100
0000
1000
0100
0010
0000
0100
0010
,
0001
0000
1000
0000
0010
0000
0000
0100
0000
0000
0010
0000
0000
0000
1000
0000
,
0000
0000
0001
0000
0010
0000
0000
0100
0000
0000
1000
0000
0010
0100
0001
0000
,
0100
0010
1000
0000
0001
0000
0000
0100
0000
0000
0010
0000
110M
0000
0000
11M0
,
0000
0000
110M
0000
1000
0001
0100
0000
0010
1000
0001
0000
0100
0010
1000
0000
,
0010
0100
0001
0000
1000
0000
0000
0001
0000
0000
0010
0000
0000
0000
0001
0000
,
0000
0000
0100
0000
0001
0000
0000
1000
0000
0000
0100
0001
0100
0001
0100
0000
,
0010
0000
0100
0000
M110
0000
0000
101M
0000
0000
M101
0000
0000
11M0
0000
0000
,
100M
0100
0010
0100
1000
0000
0010
0100
0000
0100
0000
0120
0000
0000
1030
0000
,
0M01
0000
1000
0000
0010
0000
1000
0010
0000
0010
0000
0200
0000
0000
0000
0000
,
M301
0100
0001
0010
0100
0000
1000
0001
0000
0001
0000
0201
0000
0000
0310
0000
,
M100
0000
0001
0000
1000
0000
0010
0100
0000
0100
0000
0010
1000
0010
0000
1000
,
001M
1000
0010
0100
0010
0000
0100
0001
00M0
0001
0000
2001
0000
0000
3010
0000
,
M100
0000
0001
0000
0010
0000
0001
0100
00M0
0100
0000
0002
0000
0000
1003
0000
,
0M01
0000
0100
0000
0010
0000
1000
0010
000M
0000
0100
0000
0001
0000
0010
0001
,
0M00
1000
0000
0010
000M
0000
0100
0000
M000
0001
0000
0000
01M0
0000
0000
0010
,
000M
0000
1000
0000
0M01
1000
00M0
0001
1M00
0000
00M1
1000
0M00
0001
10M0
0000
,
0M01
0000
1000
00M0
0001
0000
1M00
0000
0001
00M0
1000
0000
0M01
0000
0000
0000
0000
0000
0010
0000
0000
0001
0000
0000
0000
0000
0000
0011
0000
0000
0000
0000
0000
0000
0000
0000
0100
0000
0000
0010
0000
0000
0100
0000
0000
0001
0000
0000
,
0100
0000
1001
0000
0100
0000
0010
1000
0000
1010
0000
0000
0010
0100
0010
1000
,
0010
0000
0110
0000
0001
0000
1000
0010
0000
1010
0000
0000
0100
0001
0010
0001
,
0100
0000
0101
0000
0010
0000
0100
0010
0000
0110
0000
0000
1000
0100
0010
0100
,
0010
0002
0000
0000
,
0000
0000
0003
0000
;

//---------------dance-single - ----------------
#NOTES:
     dance-single:
     :
     Hard:
     8:
     0.462,0.479,0.129,0.181,0.393,339.000,15.000,21.000,6.000,0.000:
0000
0000
0000
0000
,
0000
0000
0000
0000
0000
0000
0001
0000
0000
1000
0000
0000
0010
0000
0000
0100
,
0000
0000
0010
0000
0000
0000
1000
0000
0000
0010
0000
0000
0100
0000
0000
0001
,
0000
0000
1000
0000
0000
0000
0100
0000
0000
0010
0000
0000
0001
0000
0000
0100
,
0000
0000
0010
0000
0000
0000
1000
0000
0000
0100
0000
0000
0010
0000
0000
0001
,
0000
0000
0100
0000
0010
0000
1000
0000
0000
0010
0000
0000
0100
00M0
0000
0010
,
0000
0000
1000
0000
1000
0000
0100
0000
0000
1000
0000
0000
0001
M000
0000
1000
,
0000
0000
0010
0000
1000
0000
0010
0000
0000
0100
0000
0000
0001
0M00
0000
0100
,
0000
0000
0001
0000
0001
0000
0010
0000
0000
0100
0000
0000
0010
0000
0000
0100
,
0000
0000
0000
0000
1000
0000
0010
0000
1000
0000
0100
0000
1000
0000
0000
1010
,
0000
0000
1010
0000
0001
0000
0100
0000
0001
0000
0010
0000
0001
0000
0000
0011
,
0000
0000
0011
0000
0010
0000
0001
0000
0010
0000
0100
0000
0010
0000
0000
0110
,
0000
0000
0110
0000
1000
0000
0001
0000
1000
0000
0010
0000
1000
0100
0000
0100
,
0010
0000
0101
0000
0000
0000
1000
0100
0000
0010
0000
0000
0001
0000
0000
0010
,
0100
0000
0100
0000
0000
0000
0010
0100
0000
0100
0000
0000
1000
0000
0000
0010
,
0100
0000
0001
0000
0000
0000
1000
0100
0000
0100
0000
0000
0010
0000
0000
0001
,
0010
0000
0010
0000
0000
0000
0100
1000
0000
0001
0000
0000
0100
0001
0000
0001
,
1000
0000
0001
0010
0100
0010
0000
0001
,
1000
0000
0010
0000
0100
0000
0000
0010
0000
0000
1000
0000
0000
0000
0010
0000
,
0000
0100
0001
1000
0010
0100
0000
0001
,
0010
0000
0100
0000
0001
0000
0000
0100
0000
0000
0010
0000
0000
0000
0100
0000
,
0000
1000
0001
0010
0100
1000
0000
0100
,
0010
0000
0100
0000
1000
0000
0000
0001
0000
0000
0100
0000
0000
0000
0010
0000
,
0000
0000
1000
0000
0010
0000
0000
0100
0000
0000
0001
0000
0000
0100
0000
0000
,
0000
0000
0010
0000
1000
0000
0000
0100
0000
0000
1000
0000
0000
0000
0100
0000
,
0100
0000
0100
0000
0010
0000
0001
0100
0010
0000
1000
0100
0000
1000
0100
0000
,
0010
0000
0001
0000
0010
0000
0000
0100
0000
0000
1000
0000
0000
0000
0001
0000
,
0000
0000
0100
0000
0010
0000
1000
0010
0100
0000
0001
0010
0000
0001
0010
0000
,
0100
0000
1000
0000
0001
0000
0000
1000
0000
0000
0010
0000
0000
0000
0100
0000
,
0000
0000
0001
0000
0100
0000
0010
0100
0010
0000
1000
0001
0000
1000
0001
0000
,
0100
0000
0001
0000
0100
0000
0000
0001
0000
0000
0010
0000
0000
0000
0100
0000
,
0000
0000
1000
0100
0010
0000
0000
0000
0000
0000
0001
0000
0100
0000
0000
0000
,
0001
1000
0010
0000
0100
0000
0010
1000
,
0001
0000
0100
0000
0001
0000
0100
0010
0000
0000
0110
0000
0000
0100
0010
0000
,
0100
0000
0001
0000
1000
0000
0000
0001
0000
0000
0010
0000
0000
0000
0100
0000
,
0000
0000
1000
0000
0001
0000
0000
0100
0000
0000
0010
0000
1000
0000
0100
0000
,
1000
0000
0100
0000
0010
0000
0000
0100
0000
0000
1000
0000
1001
0000
0010
0000
,
0100
0000
1000
0000
0100
0000
1000
0001
0000
0000
0101
0000
0000
0100
0001
0000
,
1000
0000
0010
0000
0100
0000
0000
0010
0000
0000
1000
0000
0000
0000
0001
0000
,
0000
0000
0100
0000
0010
0000
0000
0010
0000
0000
0010
0000
0100
0001
0100
0000
,
0010
0000
1000
0000
0100
0000
0000
0100
0000
0000
1001
0000
0000
0000
0000
0000
,
0020
0000
0000
0000
1030
0000
0002
0000
0000
0013
0000
0100
0000
0000
1000
0000
,
0010
0000
1000
0000
0100
0000
2000
0000
0000
3010
0000
0100
0000
0000
0000
0000
,
0002
0000
0000
0000
0103
0000
0020
0000
0000
1030
0000
0010
0000
0000
0100
0000
,
0001
0000
0010
0000
0100
0000
2000
0000
0000
3001
0000
0100
0000
0000
0000
0000
,
0020
0000
0000
0000
1030
0000
0020
0000
0000
1030
0000
0100
0000
0000
1000
0000
,
0100
0000
0010
0000
0100
0000
2000
0000
0000
3001
0000
0010
0000
0000
0001
0000
,
0100
0000
0010
0000
0100
0000
0010
1000
0000
0000
0100
0000
1000
0000
0001
0200
,
0000
0010
0000
0020
0000
0000
0000
0000
0000
0000
0000
0000
0000
0000
0000
0000
,
0000
0000
0300
0000
1M00
0000
0000
0100
0000
0000
1000
0000
0000
0100
0000
0000
,
1000
0000
1030
0000
0000
M0M0
0002
0000
0013
0000
0100
0000
0020
0000
0000
0032
,
0000
0003
1010
0000
0100
0000
0002
0000
0013
0000
0100
0000
0020
0000
0000
0230
,
0000
0300
1001
0000
0010
0000
0100
0000
0001
0000
1000
0000
0002
0000
0000
0203
,
0000
0300
0110
0000
1000
0000
0001
0000
0010
0000
0100
0000
1000
0010
0000
0100
,
0010
2200
0000
0000
,
0000
0000
3300
0000
;

//---------------dance-single - ----------------
#NOTES:
     dance-single:
     :
     Beginner:
     1:
     0.076,0.117,0.043,0.017,0.000,55.000,5.000,2.000,0.000,0.000:
0000
0000
0000
0000
,
0000
0000
0000
0000
,
0000
0000
0000
0000
,
0000
0000
0000
0000
,
0000
0000
0000
0000
,
0000
0100
0000
0000
,
0000
0000
0000
0000
,
0000
0001
0000
0000
,
0000
0010
0000
0000
,
0000
1001
0000
0000
,
0000
1000
0000
0000
,
0000
0010
0000
0000
,
0000
0100
0000
0000
,
0000
0001
0000
0000
,
0000
0010
0000
0000
,
0000
0001
0000
0000
,
0000
1000
0000
0001
,
0000
0100
0000
0000
,
0000
0010
0000
0000
,
0000
1000
0000
0000
,
0000
0000
0000
0000
,
0000
0010
0000
0000
,
0000
0100
0000
0000
,
0000
0001
0000
0000
,
0000
0000
0000
0000
,
0000
0100
0000
0000
,
0000
0001
0000
0000
,
0000
1000
0000
0000
,
0000
0000
0000
0000
,
0000
0110
0000
0000
,
0000
0001
0000
0000
,
0000
1000
0000
0000
,
0000
0010
0000
0000
,
0000
1001
0000
0000
,
0000
0100
0000
0000
,
0000
0010
0000
1000
,
0000
0010
0000
0100
,
0000
0001
0000
0000
,
0000
1000
0000
0010
,
0000
0100
0000
0001
,
0000
0000
2020
0000
0000
3030
0000
0000
,
0000
0001
0000
0000
,
0000
1000
0000
0000
,
0000
0010
0000
0000
,
0000
0100
0000
0001
,
0000
0100
0000
0000
,
0000
0010
0000
0000
,
0000
1000
0000
0010
,
0000
0100
0000
0000
,
0000
0001
0000
0000
,
0000
1000
0000
0001
,
0000
1000
0000
0000
,
0000
0010
0000
1000
,
0000
0010
0000
0000
,
0000
1010
0000
0000
;

//---------------dance-single - ----------------
#NOTES:
     dance-single:
     :
     Medium:
     5:
     0.344,0.303,0.155,0.112,0.013,248.000,18.000,13.000,3.000,0.000:
0000
0000
0000
0000
,
0000
0000
0000
1000
0000
0010
0100
0000
,
0010
0100
0000
0001
0000
1000
0001
0000
,
1000
0001
0000
1000
0000
0001
0100
0000
,
0001
0100
0000
0010
0000
0100
0010
0000
,
0100
0010
1000
0000
0100
0000
1000
0000
,
0010
0100
0001
0000
1000
0000
0001
0000
,
0100
0010
1000
0000
0100
0000
0010
0000
,
0001
0010
0100
0000
1000
0100
0010
0000
,
0100
0000
1000
0000
0001
0010
0001
0000
,
1000
0010
0000
0100
0000
0001
0010
0000
,
0100
1000
0000
0010
0000
0100
0001
0000
,
1000
0010
0000
0100
0000
0001
0010
0001
,
0100
0010
0000
1000
0000
0001
0010
0000
,
0100
1000
0000
0010
0000
0100
0001
0000
,
1000
0100
0000
1000
0000
0001
0100
0000
,
0010
0100
0000
0010
0000
1000
0010
0100
,
0010
2000
0010
0001
,
3010
0100
0010
0000
0100
0010
0000
1000
,
0000
0000
0002
0000
1000
0000
0000
M000
0000
0000
1000
0000
0000
0000
0100
0000
,
0003
1000
0001
0000
0100
0010
0000
1000
,
0000
0020
0100
0000
1000
0100
0000
0000
,
0030
1000
0001
0000
0100
0010
0000
1000
,
0000
0000
0002
0000
1000
0000
0000
M000
0000
0000
1000
0000
0000
M000
0000
0000
,
0003
0010
0100
0000
0010
0100
0000
1000
,
0001
1000
0020
0000
1000
0000
0100
0000
,
0031
0010
0100
0000
1000
0001
0000
0100
,
0000
0002
0010
0000
0100
1000
0000
0100
,
0003
0001
0100
0000
0001
1000
0000
0100
,
0000
0020
0001
0000
0001
0100
0000
0000
,
1030
0100
1000
0000
0010
1000
0000
1001
,
0000
0200
0000
0000
0000
0302
0000
0000
,
0000
1003
0010
0000
0101
0000
0010
0100
,
0010
0100
0020
0000
0000
0000
0000
0000
,
0030
0100
0001
0000
0010
0100
0000
1010
,
0000
0010
0100
0000
0100
0010
0000
1100
,
0000
0001
1000
0000
1000
0010
0100
0000
,
0001
0200
0000
0000
,
0000
0310
0100
0000
0001
1000
0000
1001
,
0000
0100
0010
0000
0100
0001
0000
1010
,
0000
0100
0010
0000
0000
0110
0000
0000
,
0001
0100
0002
0000
1000
0000
0103
0000
,
0001
0000
1000
0000
0001
1000
0001
0000
,
0100
0010
2000
0000
0001
0000
3100
0000
,
1000
0000
0001
0000
0010
0001
0100
0001
,
1000
0001
0100
0000
0010
0000
1000
0001
,
0010
0000
0001
1000
0010
0100
0001
0000
,
0000
1100
0000
1010
,
0000
0001
0100
0010
,
1000
0000
0001
0100
0001
0100
0010
1000
,
1010
1010
0000
1001
0000
0000
0100
0000
,
0000
0101
0000
1010
0000
0000
0100
0000
,
0000
0011
0000
0110
0000
0000
0001
0000
,
0000
0110
0000
1010
0000
0000
0100
0010
,
0100
0000
0000
0000
;

//---------------dance-single - ----------------
#NOTES:
     dance-single:
     :
     Easy:
     3:
     0.160,0.185,0.060,0.026,0.000,120.000,7.000,3.000,0.000,0.000:
0000
0000
0000
0000
,
0000
0000
0000
0000
,
0000
0000
0000
0000
,
0000
0000
0000
0000
,
0000
0000
0000
0000
,
0000
1000
0000
0000
,
0000
0001
0000
0000
,
0000
0100
0000
0000
,
0000
0001
0000
1000
,
0000
0001
0000
1000
,
0010
0100
0000
0001
,
1000
0010
0000
0100
,
0001
1000
0000
1010
,
0000
0100
0000
0010
,
0000
1000
0001
0100
,
0010
1000
0000
0010
,
0000
1000
0000
0100
,
0010
0001
0000
1000
,
0001
1000
0000
0010
,
0000
0100
0010
1000
,
0100
0010
0000
0001
,
0000
1000
0000
0001
,
0010
0001
0000
1000
,
0000
0010
0100
0001
,
1000
0010
0000
1000
,
0000
0010
1000
0010
,
0100
0010
0000
0000
,
0000
1000
0001
0100
,
0010
1000
0000
0001
,
0000
0010
0001
1000
,
0100
0010
0000
0000
,
0000
0001
1000
0010
,
0100
0010
0000
1000
,
0000
0010
0000
0000
,
0000
1000
0000
0010
,
0000
0100
0001
0010
,
0000
0001
1000
0010
,
0000
0100
0000
0000
,
0000
0010
1000
0010
,
0100
0002
0000
1003
,
0000
0110
0000
0000
,
0001
1000
0000
0010
,
0000
1000
0001
0010
,
0001
1000
0000
0010
,
0000
0100
0001
0010
,
0100
1000
0000
0010
,
0000
1000
0100
0010
,
0001
1000
0000
0010
,
0000
1000
0000
0010
,
0000
0110
0000
0000
,
2002
0000
0000
3003
0000
0000
0000
0000
0000
0000
0000
0000
0010
0000
0000
0000
,
0000
1001
0000
0100
,
0000
0010
0000
0110
,
0000
0001
0000
1001
;
